第一滴血2.Rambo.First.Blood.Part.II.1985.BluRay.2160p.x265.10bit.HDR.2Audio.mUHD-FRDS[国英音轨/简繁英字幕]

◎译  名 第一滴血2 / 兰博2
◎片  名 Rambo: First Blood Part II
◎年  代 1985
◎产  地 美国
◎类  别 动作 / 惊悚 / 冒险
◎语  言 英语 / 越南语
◎上映日期 1985-05-22(美国)
◎IMDb评分  6.5/10 from 149059 users
◎IMDb链接  https://www.imdb.com/title/tt0089880
◎豆瓣评分 7.8/10 from 37401 users
◎豆瓣链接 https://movie.douban.com/subject/1300361/
◎片  长 96 分钟
◎导  演 George P. Cosmatos
◎编  剧 Sylvester Stallone / James Cameron / Kevin Jarre / David Morrell / George Cheung
◎主  演 Sylvester Stallone
       Richard Crenna
       Steven Berkoff
       Charles Napier
       Julia Nickson-Soul
       Martin Kove

◎标  签 动作 | 史泰龙 | 美国 | 战争 | 第一滴血 | 越战 | 美国电影 | 1985

◎简  介  

  神勇的蓝波(西尔维斯特?史泰龙 Sylvester Stallone 饰)又回来了!这次,蓝波奉命返回越南调查失踪的美军是否已成为战俘。然而,蓝波甫一登陆越南,所有装备和武器都丢失了!随身剩下的,只有一把军刀和一套军用弓箭。
  身处逆境的蓝波,偶然发现了出卖他的正是自己的部队!蓝波在九死一生之际,得到了当地一名越南少女的帮助。在少女的帮助下,蓝波凭借其高超的求生技能和坚强的意志,克服了一切困难,终于逃出生天。
  蓝波决定向出卖他的人重拳出击!

◎获奖情况  

  第58届奥斯卡金像奖(1986)
  最佳音效剪辑(提名) Fred J. Brown

General
Unique ID : 201682657552465933577146078537231072469 (0x97BAAABCDE1348C23952D8106F7B7CD5)
Complete name : 第一滴血2.Rambo.First.Blood.Part.II.1985.BluRay.2160p.x265.10bit.HDR.2Audio.mUHD-FRDS\Rambo.First.Blood.Part.II.1985.BluRay.2160p.x265.10bit.HDR.2Audio.mUHD-FRDS.mkv
Format : Matroska
Format version : Version 4
File size : 15.9 GiB
Duration : 1 h 35 min
Overall bit rate mode : Variable
Overall bit rate : 23.7 Mb/s
Encoded date : UTC 2018-12-21 06:52:14
Writing application : mkvmerge v20.0.0 (‘I Am The Sun’) 64-bit
Writing library : libebml v1.3.5 + libmatroska v1.4.8

Video
ID : 1
Format : HEVC
Format/Info : High Efficiency Video Coding
Format profile : Main 10@L5.1@High
HDR format : SMPTE ST 2086, HDR10 compatible
Codec ID : V_MPEGH/ISO/HEVC
Duration : 1 h 35 min
Bit rate : 17.2 Mb/s
Width : 3 840 pixels
Height : 1 632 pixels
Display aspect ratio : 2.35:1
Frame rate mode : Constant
Frame rate : 24.000 FPS
Color space : YUV
Chroma subsampling : 4:2:0
Bit depth : 10 bits
Bits/(Pixel*Frame) : 0.114
Stream size : 11.5 GiB (73%)
Writing library : x265 2.8g0ad419482+18:[Windows][GCC 7.1.0][64 bit] Yuuki 10bit
Encoding settings : rc=crf / crf=19.5000 / qcomp=0.70 / qpstep=4 / vbv-maxrate=160000 / vbv-bufsize=160000 / vbv-init=0.9 / crf-max=0.0 / crf-min=0.0 / aq-mode=3 / aq-strength=0.80 / cbqpoffs=-3 / crqpoffs=-3 / ipratio=1.40 / pbratio=1.20 / psy-rd=2.00 / psy-rdoq=5.00 / deblock=-1:-1 / ref=5 / bframes=9 / b-adapt=2 / bframe-bias=0 / b-pyramid / b-intra / weightp / weightb / min-keyint=24 / max-keyint=300 / rc-lookahead=40 / gop-lookahead=0 / scenecut=40 / radl=0 / max-cu-size=32 / min-cu-size=8 / me=3 / subme=4 / merange=25 / rdoq-level=2 / rd=4 / rdpenalty=1 / —– / cutree / no-sao / no-rect / no-amp / no-open-gop / wpp / no-pmode / no-pme / no-psnr / no-ssim / nr-intra=0 / nr-inter=0 / no-constrained-intra / no-strong-intra-smoothing / max-tu-size=32 / tu-inter-depth=2 / tu-intra-depth=2 / limit-tu=4 / qg-size=32 / qpmax=69 / qpmin=0 / —– / cpuid=1111039 / frame-threads=5 / numa-pools=-,84 / log-level=2 / input-csp=1 / input-res=3840×1632 / interlace=0 / level-idc=0 / high-tier=1 / uhd-bd=0 / no-allow-non-conformance / no-repeat-headers / no-aud / hrd / info / hash=0 / no-temporal-layers / lookahead-slices=4 / no-intra-refresh / dynamic-rd=0.00 / no-ssim-rd / signhide / no-tskip / max-merge=3 / limit-refs=2 / limit-modes / temporal-mvp / no-analyze-src-pics / no-sao-non-deblock / no-early-skip / no-rskip / no-fast-intra / no-tskip-fast / no-cu-lossless / no-splitrd-skip / no-rd-refine / no-lossless / zone-count=0 / no-strict-cbr / no-rc-grain / no-const-vbv / sar=0 / overscan=0 / videoformat=5 / range=0 / colorprim=9 / transfer=16 / colormatrix=9 / chromaloc=0 / display-window=0 / master-display=G(13250,34500)B(7500,3000)R(34000,16000)WP(15635,16450)L(10000000,1) / max-cll=479,464 / min-luma=0 / max-luma=1023 / log2-max-poc-lsb=8 / vui-timing-info / vui-hrd-info / slices=1 / no-opt-qp-pps / no-opt-ref-list-length-pps / no-multi-pass-opt-rps / scenecut-bias=0.05 / no-opt-cu-delta-qp / no-aq-motion / hdr / hdr-opt / no-dhdr10-opt / no-idr-recovery-sei / analysis-reuse-level=5 / scale-factor=0 / refine-intra=0 / refine-inter=0 / refine-mv=0 / no-limit-sao / ctu-info=0 / no-lowpass-dct / refine-mv-type=0 / copy-pic=1 / max-ausize-factor=1.0 / no-dynamic-refine / no-single-sei
Default : Yes
Forced : No
Color range : Limited
Color primaries : BT.2020
Transfer characteristics : PQ
Matrix coefficients : BT.2020 non-constant
Mastering display color primar : Display P3
Mastering display luminance : min: 0.0001 cd/m2, max: 1000 cd/m2
Maximum Content Light Level : 479 cd/m2
Maximum Frame-Average Light Le : 464 cd/m2

Audio #1
ID : 2
Format : DTS XLL
Format/Info : Digital Theater Systems
Commercial name : DTS-HD Master Audio
Codec ID : A_DTS
Duration : 1 h 35 min
Bit rate mode : Variable
Bit rate : 4 174 kb/s
Channel(s) : 6 channels
Channel layout : C L R Ls Rs LFE
Sampling rate : 48.0 kHz
Frame rate : 93.750 FPS (512 SPF)
Bit depth : 24 bits
Compression mode : Lossless
Delay relative to video : 3 ms
Stream size : 2.79 GiB (18%)
Title : 英语
Language : English
Default : Yes
Forced : No

Audio #2
ID : 3
Format : DTS XLL
Format/Info : Digital Theater Systems
Commercial name : DTS-HD Master Audio
Codec ID : A_DTS
Duration : 1 h 35 min
Bit rate mode : Variable
Bit rate : 2 284 kb/s
Channel(s) : 6 channels
Channel layout : C L R Ls Rs LFE
Sampling rate : 48.0 kHz
Frame rate : 93.750 FPS (512 SPF)
Bit depth : 16 bits
Compression mode : Lossless
Delay relative to video : 2 ms
Stream size : 1.53 GiB (10%)
Title : 华录国语
Language : Chinese
Default : No
Forced : No

Text #1
ID : 4
Format : PGS
Muxing mode : zlib
Codec ID : S_HDMV/PGS
Codec ID/Info : Picture based subtitle format used on BDs/HD-DVDs
Duration : 1 h 32 min
Bit rate : 12.1 kb/s
Count of elements : 1203
Stream size : 7.98 MiB (0%)
Title : 国配特效
Language : Chinese
Default : Yes
Forced : No

Text #2
ID : 5
Format : PGS
Muxing mode : zlib
Codec ID : S_HDMV/PGS
Codec ID/Info : Picture based subtitle format used on BDs/HD-DVDs
Duration : 1 h 32 min
Bit rate : 10.6 kb/s
Count of elements : 1242
Stream size : 7.01 MiB (0%)
Title : 简体中文
Language : Chinese
Default : No
Forced : No

Text #3
ID : 6
Format : PGS
Muxing mode : zlib
Codec ID : S_HDMV/PGS
Codec ID/Info : Picture based subtitle format used on BDs/HD-DVDs
Duration : 1 h 31 min
Bit rate : 21.6 kb/s
Count of elements : 1269
Stream size : 14.2 MiB (0%)
Title : 简英双语
Language : Chinese
Default : No
Forced : No

Text #4
ID : 7
Format : PGS
Muxing mode : zlib
Codec ID : S_HDMV/PGS
Codec ID/Info : Picture based subtitle format used on BDs/HD-DVDs
Duration : 1 h 34 min
Bit rate : 10.4 kb/s
Count of elements : 882
Stream size : 7.06 MiB (0%)
Title : 英文
Language : English
Default : No
Forced : No

Menu
00:00:00.000 : :Chapter 01
00:09:02.041 : :Chapter 02
00:17:38.208 : :Chapter 03
00:26:11.625 : :Chapter 04
00:35:21.541 : :Chapter 05
00:45:45.208 : :Chapter 06
00:55:17.791 : :Chapter 07
01:06:14.875 : :Chapter 08
01:15:45.333 : :Chapter 09
01:26:23.666 : :Chapter 10

磁力下载:

第一滴血2.Rambo.First.Blood.Part.II.1985.BluRay.2160p.x265.10bit.HDR.2Audio.mUHD-FRDS 15.9G

更多下载:

第一滴血系列1-5高清合集.Rambo.First.Blood.1982-2019.Movies.Collection.Pack

>>>https://www.bluraymov.com/thread-1900-1-1.html

西尔维斯特·史泰龙电影高清合集 Sylvester.Stallone.1970-2019.Movies.Collection

>>>https://www.bluraymov.com/thread-1888-1-1.html

发表评论

电子邮件地址不会被公开。 必填项已用*标注