【恶魔的艺术三部曲合集】Art of the Devil [2004-2008][DVDRip-MKV/14.4GB][泰语无字][720/1080P][BT下载]

一番搜寻后,这个合集大概是目前找到的最好版本,貌似只有第二部有1080版的,遗憾的是下来亲测后三部都木有中文字幕,只能自己搜寻了,都是好几年前的电影,字幕应该都有了吧。

【恶魔的艺术三部曲】[2004-2008][1-3合集][DVDRip-MKV/14.4GB][泰语无字][720/1080P][BT下载] 光影怪客 www.guaikemov.com

◎译  名 恶魔的艺术

◎片  名 Art of the Devil

◎年  代 2004

◎国  家 泰国

◎类  别 恐怖

◎语  言 泰语

◎字  幕 自配

◎IMDB评分 4.7/10 319 votes

◎IMDB链接 http://www.imdb.com/title/tt0444759

◎片  长 96 Mins

◎导  演 Tanit Jitnukul

◎主  演 Arisa Wills … Nan

Supakson Chaimongkol … Boom

Krongthong Rachatawan … Kamala

Tin Settachoke … Prathan

Satuthum … Danai

Isara Ochakul … Ruj

Nirut Sutchart … Neng

Krittayod Thimnate … Bon

简  介

影 片围绕着一个家庭遭到情妇利用”黑色巫术”复仇的故事展开。讲述一个百万富翁全家人被神秘而诡异地杀害,没有丝毫线索,无法找到可以指证的凶手。神秘而恐 怖的死亡令所有人为之困惑。一位罪案报道记者参与进此案的调查, 发现一个美貌的女人很可疑。他该如何向所有人证明她就是那个一直隐藏着的并且擅长”魔鬼的艺术”的情妇……

Complete name : [恶魔的艺术].Art.Of.The.Devil.2004.DVDRip.X264.iNT-JionG.mkv

Format : Matroska

Format version : Version 1

File size : 1.38 GiB

Duration : 1h 36mn

Overall bit rate : 2 038 Kbps

Encoded date : UTC 2008-07-20 01:22:21

Writing application : mkvmerge v2.2.0 (‘Turn It On Again’) built on Mar  4 2008 12:58:26

Writing library : libebml v0.7.7 + libmatroska v0.8.1

Video #1

ID : 1

Format : AVC

Format/Info : Advanced Video Codec

Format profile : High@L5.1

Format settings, CABAC : Yes

Format settings, ReFrames : 3 frames

Codec ID : V_MPEG4/ISO/AVC

Duration : 1h 36mn

Bit rate : 1 587 Kbps

Width : 720 pixels

Height : 416 pixels

Display aspect ratio : 1.731

Frame rate mode : Constant

Frame rate : 25.000 fps

Color space : YUV

Chroma subsampling : 4:2:0

Bit depth : 8 bits

Scan type : Progressive

Bits/(Pixel*Frame) : 0.212

Stream size : 1.05 GiB (76%)

Writing library : x264 core 60 r901M 58d7d06

Language : English

Default : Yes

Forced : No

Audio #2

ID : 2

Format : AC-3

Format/Info : Audio Coding 3

Mode extension : CM (complete main)

Format settings, Endianness : Big

Codec ID : A_AC3

Duration : 1h 36mn

Bit rate mode : Constant

Bit rate : 448 Kbps

Channel(s) : 6 channels

Channel positions : Front: L C R, Side: L R, LFE

Sampling rate : 48.0 KHz

Compression mode : Lossy

Stream size : 310 MiB (22%)

Language : tai

Default : Yes

Forced : No

 

【恶魔的艺术三部曲】[2004-2008][1-3合集][DVDRip-MKV/14.4GB][泰语无字][720/1080P][BT下载] 光影怪客 www.guaikemov.com

◎译  名 恶魔的艺术2: 邪降

◎片  名 Art of the Devil 2

◎年  代 2005

◎国  家 泰国

◎类  别 恐怖

◎语  言 泰语

◎字  幕 中文

◎IMDB评分  6.0/10 (968 votes)

◎IMDB链接  http://www.imdb.com/title/tt0756222

◎片  长 1h:41m:25s

◎导  演 Pasith Buranajan

◎主  演 Napakpapha Nakprasitte …. Aajaan Panor

Akarin Siwapornpitak …. Paw

Chanida Suriyakompon …. Nut

Namo Tongkumnerd …. Ta

Pavarit Wongpanitch …. Go

Korakot Woramusik …. Tae

简 介一 

六个昔日的同窗好友在分开多年之后分别收到了旧时好友 Ta 的邀请,于是他们一起离开曼谷前往儿时的故乡,记忆之门也渐渐敞开。

当 时还在读中学的他们与校内好色的体育老师不和,一次偶然的机会,六人撞破了体育老师与 Ta 的继母 Panor(Mamee饰)的奸情,并用 DV 录下。Ta 将此事告知父亲,导致父亲与继母 Panor 的对峙,Panor 更加愤恨 Ta。疯狂的体育老师遂将六人抓起来进行虐打侮辱。受辱后的六人愤恨难平,于是前去求助神奇的巫师,请求降邪。六人本以为过去的事已经远离,却不知此次旅 行,却成为了他们万劫不复的噩梦……

简 介二

描述六名青梅竹马好友,趁著大学放暑假回老家重聚,假期中六人遇到昔日小学老师 Panor。美丽性感的 Panor 也是六人之一 Ta 的继母,但她与继子形同陌路已久,除了她严重偏袒自己的亲生儿子,Panor 的贞洁也让 Ta 极度怀疑。

Panor 的确追求者眾多,行为也颇为招摇风骚,但另一方面她也是个温柔的好母亲与好老师,原来是追求者们为了得到她的芳心,不惜求助降头术。众多追求者反覆下降头 的结果,让 Panor 失去了理智,愈来愈陷溺在幻想与失魂的状态。Panor 只好寻求巫师帮助,没想到在仪式进行的过程中,Panor 意外变成了带有黑暗力量的女巫。此时这六个年轻人才发现,他们的重聚并非巧合,在这个夜里,Panor 要让这些不知天高地厚的年轻人,看清楚什么才是真正的恐怖……

幕后花絮

由 7名导演联手打造的《恶魔的艺术:邪降》,描述六名昔日同窗回到家乡,原以为欢乐的重聚,却因为过去求邪降蛊的秘密往事,而遭致无法想像的报复。这部被誉 为恐怖极致的新片《恶魔的艺术:邪降》,巧妙融合了南洋邪降的传说和出人意料的情节转折,配以极度血腥、残酷的超尺度画面,在曼谷电影节首度曝光时就造成 极大轰动,放映现场尖叫连连,更有观眾看到一半惊慌夺门而出!本片不但在曼谷电影节获选为观眾票选最佳影片,也在今年台北电影节造成一票难求的狂卖盛况, 放映后也获得各大媒体、影评人一致好评。

此 片完全用现代的手法,描写古老的民间迷信,制造出一种极度恐怖的反差效果。全片只花了三个月就拍完了,整部电影的重点除了大篇幅的残忍虐杀血腥镜头,例如 滚水烫人、挖眼珠、凿额头、断手断脚、开肠剖肚、生吃人肉等,故事的重点其实是青少年的心理状态,强调当青少年面临重要抉择时,如何做出选择的挣扎过程。

电 影从头到尾都弥漫著一股热带地区的神秘气息,美术指导表示,片中每一个场景中的每一个镜头,都经过精心设计,以保证恐怖诡异的气氛可以越来越强烈。工作人 员的前置作业非常精细,例如在分镜表上,连每个人的动作、位置都事先标示得一清二楚,每一个小动作都算是场景的一部分,每一个小细节都保证百分之百的惊悚 效果。

导演的话

身 兼编剧及导演之一的 Kongkiat Khomsiri 说,几年前他在报上看到一则新闻,有个女人认为自己可以跟神明沟通,陷入疯狂的她先把自己的女儿用电线绑起来,然后拿螺丝起子血淋淋地钻进女儿的额头。警 方调查后才发现,多年前这名妇人被一名男性下了爱情降头,因而生下了他的孩子。妇人认为这个女儿是个不祥的果实,是个活生生的罪孽,因此她决心要用非常手 段来清洗女儿的灵魂。Kongkiat Khomsiri说:「我当时只觉得,整个社会充满迷信的病态,完全展现在这个故事中。」

另一则新闻也让 Kongkiat Khomsiri 相当难忘,那则新闻描述一个酷爱刺青的年轻男孩,认为刺青具有神奇的力量,可以让他刀枪不入,完全不会受伤。

「降头术代表了青少年成长过程中一定会受到的诱惑,」身兼编剧与导演之一的 Kongkiat Khomsiri 说:「青少年往往必须面对困难的重要抉择,有时候他们明明知道自己所选择的是一条危险的道路,但是因为年轻的缘故,他们还是会一意孤行。」

「这 就是至今存在大多数年轻人心中的降头术概念。我根据这些新闻创造出了片中的角色。我把他们放进故事里,让他们做出选择,让他们看看作出选择之后,他们可能 必须要面对什么样的后果,又必须如何收拾被自己搞得一蹋糊涂的残局。」Kongkiat Khomsiri 说,他最想要知道的是,人生之中,我们如何做出选择?故事中的人物明知自己要面对巨大的危险,但他们还是继续向前走,为什么?

获奖记录

2006年曼谷电影节观眾票选奖

2006年泰国国家电影协会奖 最佳女配角(提名)娜帕克帕发·纳克普拉西特

经典台词

在我们的生命之路上,会有诸多选择,有时,你根本不知道你的选择会带来怎样的结果。

但是,许多次我们知道应该或不应该做一件事情的时候,我们却没能做出明智的选择。

但是,这样说却是对的:有时,如果我们一开始就作出了正确的选择,死神就不会离我们如此之近。

Complete name : Art.Of.The.Devil.2.2005.720p.BluRay.x264-LCHD[www.YYeTs.net].mkv

Format : Matroska

Format version : Version 2

File size : 4.37 GiB

Duration : 1h 41mn

Overall bit rate : 6 167 Kbps

Encoded date : UTC 2010-06-02 22:40:52

Writing application : mkvmerge v3.1.0 (‘Happy up here’) built on Jan 19 2010 12:09:24

Writing library : libebml v0.7.9 + libmatroska v0.8.1

Video #1

ID : 1

Format : AVC

Format/Info : Advanced Video Codec

Format profile : High@L4.1

Format settings, CABAC : Yes

Format settings, ReFrames : 5 frames

Codec ID : V_MPEG4/ISO/AVC

Duration : 1h 41mn

Bit rate : 5 527 Kbps

Width : 1 280 pixels

Height : 712 pixels

Display aspect ratio : 16:9

Frame rate mode : Constant

Frame rate : 23.976 fps

Color space : YUV

Chroma subsampling : 4:2:0

Bit depth : 8 bits

Scan type : Progressive

Bits/(Pixel*Frame) : 0.253

Stream size : 3.83 GiB (88%)

Writing library : x264 core 96 r1602 69588a7

Language : Thai

Default : Yes

Forced : Yes

Audio #2

ID : 2

Format : AC-3

Format/Info : Audio Coding 3

Mode extension : CM (complete main)

Format settings, Endianness : Big

Codec ID : A_AC3

Duration : 1h 41mn

Bit rate mode : Constant

Bit rate : 640 Kbps

Channel(s) : 6 channels

Channel positions : Front: L C R, Side: L R, LFE

Sampling rate : 48.0 KHz

Compression mode : Lossy

Stream size : 464 MiB (10%)

Language : Thai

Default : Yes

Forced : Yes

Text #3

ID : 3

Format : UTF-8

Codec ID : S_TEXT/UTF8

Codec ID/Info : UTF-8 Plain Text

Language : English

Default : Yes

Forced : No

【恶魔的艺术三部曲】[2004-2008][1-3合集][DVDRip-MKV/14.4GB][泰语无字][720/1080P][BT下载] 光影怪客 www.guaikemov.com【恶魔的艺术三部曲】[2004-2008][1-3合集][DVDRip-MKV/14.4GB][泰语无字][720/1080P][BT下载] 光影怪客 www.guaikemov.com

◎译  名 恶魔的艺术3:鬼影随行

◎片  名 Art of The Devil 3

◎年  代 2008

◎国  家 泰国

◎类  别 恐怖

◎语  言 泰语

◎字  幕 自配

◎IMDB评分 5.3/10 ( 6票 )

◎IMDB链接 http://www.imdb.com/title/tt1424066

◎片  长 81 min

◎导  演 Ronin Team

◎主  演 Napakapapa Nakaprasitte(娜帕克帕发·纳克普拉西特)

Supakorn Kitsuwan

Namo Tongkumnerd

简  介

邪降3是邪降2的前传,影片采取了倒叙的手法述说 Ta 的爷爷要将 Ta 的妈妈复活。复活过程中进入女老师的身体,复活术成功之后却因为意外女老师又回到了自己的身体并被三眼邪神附身,而且具有强大的邪恶力量,然后女老师运用降头术对 Ta 一家展开了血腥的报复。

这 次的故事回到《邪降:恶魔的艺术》发生之前,融合第一集与第二集以及当地的神秘降头术和自创的惊吓手法,对人物的转折际遇将做出更完整的交代。潘老师是个 充满魅力的乡下老师,她的美貌让许多男人甚至她的男同事和学生藉由各种妖术与降头的力量来赢得其芳心。为了斩断这些无穷尽的威胁,潘老师不得不杀了对她下 降头的巫医,但她也因此落入三眼神的掌控之中。另一方面,巫医的朋友帝特,为了征服三眼神,决定介入这场风波……

幕后花絮

近 年来,泰国恐怖片在台湾逐渐受到瞩目,之前的《鬼影》、《恶魔的艺术:邪降》在台上映时就广受好评,引发网友的热烈讨论和口碑推荐,尤其《恶魔的艺术:邪 降》当初上映时更曾发生观众惊吓到夺门而出的事件。《邪降3:鬼影随行》正是因应《邪降:恶魔的艺术》在全球的好口碑而开拍,不仅由原班人马再度通力合 作,导演也保证这次的内容绝对更加惊悚可怖,举凡剪舌、别针穿眼、电锯锯头等种种意想不到的骇人场景都将一一呈现。

导演 Ronin Team 实质是一个小团队,号称「罗宁七人组」是由七名经验丰富的新锐导演组成。

经典台词

因果轮回取决于我们自身的罪孽,罪孽之间环环相扣。

降头术好比一把刀子,刀子本身并不邪恶,看什么样的人来用。苦海无边,回头是岸。如果你还不回头,便追悔莫及。

你不要忘了,这是你自己的抉择!

Complete name : Art_of_the_Devil_3.2008-DVDRip.720p.x264-SeeingMole.mkv

Format : Matroska

Format version : Version 4 / Version 2

File size : 1.98 GiB

Duration : 1h 19mn

Overall bit rate : 3 585 Kbps

Encoded date : UTC 2013-08-19 01:12:00

Writing application : mkvmerge v6.3.0 (‘You can’t stop me!’) built on Jun 28 2013 20:09:41

Writing library : libebml v1.3.0 + libmatroska v1.4.0

Video #1

ID : 1

Format : AVC

Format/Info : Advanced Video Codec

Format profile : High@L3.1

Format settings, CABAC : Yes

Format settings, ReFrames : 5 frames

Codec ID : V_MPEG4/ISO/AVC

Duration : 1h 19mn

Width : 1 280 pixels

Height : 720 pixels

Display aspect ratio : 16:9

Frame rate mode : Constant

Frame rate : 25.000 fps

Color space : YUV

Chroma subsampling : 4:2:0

Bit depth : 8 bits

Scan type : Progressive

Title : www.SeeingMole.com ลองของ 2 Art of the Devil 3 (2008) DVDRip 720p

Default : Yes

Forced : No

Color range : Limited

Color primaries : BT.601 NTSC

Transfer characteristics : BT.601

Matrix coefficients : BT.601

Audio #2

ID : 2

Format : AC-3

Format/Info : Audio Coding 3

Mode extension : CM (complete main)

Format settings, Endianness : Big

Codec ID : A_AC3

Duration : 1h 19mn

Bit rate mode : Constant

Bit rate : 448 Kbps

Channel(s) : 6 channels

Channel positions : Front: L C R, Side: L R, LFE

Sampling rate : 48.0 KHz

Compression mode : Lossy

Stream size : 254 MiB (12%)

Title : 5.1 AC3 448 www.SeeingMole.com

Language : Thai

Default : Yes

Forced : No

Audio #3

ID : 3

Format : AAC

Format/Info : Advanced Audio Codec

Format profile : LC

Codec ID : A_AAC

Duration : 1h 19mn

Channel(s) : 2 channels

Channel positions : Front: L R

Sampling rate : 48.0 KHz

Compression mode : Lossy

Delay relative to video : 9ms

Title : stereo AAC-LC 128 ABR 2-pass www.SeeingMole.com

Language : Thai

Default : No

Forced : No

Text #4

ID : 4

Format : UTF-8

Codec ID : S_TEXT/UTF8

Codec ID/Info : UTF-8 Plain Text

Language : English

Default : No

Forced : No


download-ico

BT下载

文件列表:

Art Of The Devil 1.2004.DVDRip.X264.iNT-JionG[1.38G].torrent
Art Of The Devil 2.2005.720p.BluRay.x264-LCHD[YYeTs][4.37G].torrent
Art Of The Devil 2.2005.1080p.BluRay.x264[6.69G].torrent
Art Of The Devil 3.2008-DVDRip.720p.x264-SeeingMole[1.98G].torrent

d_downloadArt Of The Devil Pack 1-3 2004-2008 guaikemov

You may also like...

发表评论

电子邮件地址不会被公开。 必填项已用*标注

您可以使用这些HTML标签和属性: <a href="" title=""> <abbr title=""> <acronym title=""> <b> <blockquote cite=""> <cite> <code> <del datetime=""> <em> <i> <q cite=""> <s> <strike> <strong>